#TITLE:ASb;
#SUBTITLE:;
#ARTIST:Patt.22;
#TITLETRANSLIT:;
#SUBTITLETRANSLIT:;
#ARTISTTRANSLIT:;
#CREDIT:;
#BANNER:asb1.png;
#BACKGROUND:ASB.png;
#LYRICSPATH:;
#CDTITLE:;
#MUSIC:Patt.22_-_ASb.mp3;
#OFFSET:-0.020;
#SAMPLESTART:21.429;
#SAMPLELENGTH:12.000;
#SELECTABLE:YES;
#BPMS:0.000=279.990;
#STOPS:;
#BGCHANGES:;
// cache tags:
#FIRSTBEAT:0.000;
#LASTBEAT:552.000;
#SONGFILENAME:Songs/Music V.I.P ^_^/asb [Reach]/ASb.sm;
#HASMUSIC:1;
#HASBANNER:1;
#MUSICLENGTH:120.424;
// end cache tags

//---------------dance-single - ----------------
#NOTES:
     dance-single:
     :
     Hard:
     15:
     1.000,1.000,1.000,0.822,0.037,831.000,469.000,99.000,0.000,27.000:  // measure 1
1000
0000
1000
0000
1000
0000
1000
0110
,  // measure 2
0010
0000
0010
0000
0010
0000
0010
1100
,  // measure 3
1000
0000
1000
0000
1000
0000
1000
0011
,  // measure 4
0001
0000
0001
0000
0001
0000
0001
1100
,  // measure 5
0100
0000
0100
0000
0100
0000
0100
0101
,  // measure 6
1100
0000
0100
0000
0100
0000
0100
0110
,  // measure 7
0011
0000
0001
0000
0001
0000
0001
1001
,  // measure 8
0110
0000
0010
0000
0010
0000
0010
1010
,  // measure 9
0101
0000
0101
0000
0101
0000
0101
1010
,  // measure 10
0101
0000
0101
0000
0101
0000
0101
0011
,  // measure 11
1100
0000
1100
0000
1100
0000
1100
1001
,  // measure 12
0110
0000
0110
0000
0110
0000
0110
0011
,  // measure 13
1100
0000
1100
0000
1100
0000
1100
1001
,  // measure 14
0101
0000
0101
0000
0101
0000
0101
1010
,  // measure 15
1001
0000
1001
0000
1001
0000
1001
0101
,  // measure 16
1001
0000
1001
0000
1001
0000
1001
0110
,  // measure 17
1001
0000
0100
0000
2000
3101
0000
0002
,  // measure 18
1013
0000
0000
0000
0020
0000
0131
0000
0000
0000
0200
0000
1310
0000
0100
0010
,  // measure 19
0001
0000
0100
0000
0020
1130
0000
0200
,  // measure 20
0311
0000
0000
0000
0020
0000
1031
0000
0000
0000
0200
0000
0301
0010
0100
0010
,  // measure 21
0001
0000
0100
0000
2000
3110
0000
0002
,  // measure 22
0113
0000
2000
3101
0010
0010
0101
0010
,  // measure 23
0010
0000
1000
0000
0001
1001
0000
1000
,  // measure 24
1001
0000
0010
0110
0000
0100
0110
0110
,  // measure 25
1001
0101
0011
0000
1000
0100
1000
0100
,  // measure 26
0001
0000
0000
0000
1100
1010
1100
1010
,  // measure 27
0000
0000
0000
0000
1001
0000
1001
1001
,  // measure 28
0000
0101
0000
1010
0000
0101
0101
0000
,  // measure 29
1001
0000
1001
0000
0110
0101
0000
1010
,  // measure 30
0000
0000
0000
0000
1001
0000
1100
0202
,  // measure 31
0000
0303
0101
1010
,  // measure 32
1001
1001
1001
1001
1001
1001
1001
1001
,  // measure 33
1010
0100
0001
1000
0110
0001
0100
0010
,  // measure 34
1001
0100
1000
0100
0011
1000
0100
0010
,  // measure 35
1100
0010
0001
0010
1100
0010
0100
0010
,  // measure 36
1001
0010
1000
0100
0011
1000
0010
0001
,  // measure 37
1100
0010
0100
1000
0101
0010
0001
0100
,  // measure 38
0011
1000
0001
1000
0110
1000
0001
0010
,  // measure 39
0110
1000
0001
0100
1100
0010
0100
0001
,  // measure 40
1001
0010
0100
0010
0110
0001
1000
0010
,  // measure 41
1010
0000
1010
0000
1020
0000
0131
1010
,  // measure 42
0101
0000
0101
0000
0202
0000
1303
1001
,  // measure 43
0101
0000
1001
0000
2002
0000
3103
0011
,  // measure 44
1001
0000
1001
0000
2002
0000
3013
1100
,  // measure 45
0101
0000
0101
0000
0202
0000
1313
0101
,  // measure 46
1010
0000
1010
0000
2020
0000
3031
1001
,  // measure 47
0110
0000
0110
0000
0120
0000
1130
0101
,  // measure 48
1001
0010
0100
0010
1001
0100
0010
0100
,  // measure 49
1001
0000
1001
0000
0101
1010
0000
1010
,  // measure 50
0000
1001
0000
0000
0110
0000
1100
1100
,  // measure 51
0000
0000
1001
0000
1100
0000
1001
1001
,  // measure 52
1001
0110
1001
0011
1100
0011
1010
0101
,  // measure 53
1010
0000
1001
0000
0101
0011
0000
1001
,  // measure 54
0000
1001
0000
0000
1100
0000
1100
1010
,  // measure 55
0000
0000
1001
0000
1001
0000
1001
0110
,  // measure 56
0000
0101
0000
0101
0000
1010
0101
0000
,  // measure 57
1002
0000
1003
0011
0011
1000
0110
0110
,  // measure 58
1000
0101
0101
1000
0011
0011
1000
0110
,  // measure 59
0210
0000
0310
0101
0101
0010
1100
1100
,  // measure 60
0010
1001
1001
0010
0101
0101
0010
1100
,  // measure 61
1200
0000
0301
0110
0110
0001
1010
1010
,  // measure 62
0001
0110
0110
0001
1100
1100
0001
0110
,  // measure 63
0120
0000
0130
0011
0011
0100
1010
1010
,  // measure 64
0100
1001
1001
0100
0011
0011
0100
1001
,  // measure 65
1002
0000
1003
0011
0011
0100
0011
0011
,  // measure 66
1000
0101
0101
0010
0101
0101
1000
0011
,  // measure 67
0011
0100
1001
1001
0100
0011
0011
0100
,  // measure 68
1001
1001
0110
0101
1010
0110
0101
1010
,  // measure 69
0202
0000
1303
0100
0100
1000
0010
0010
,  // measure 70
0100
0001
0001
1000
0010
0010
0100
0001
,  // measure 71
2100
3120
1032
1203
,  // measure 72
1302
0000
0000
0000
0113
1000
0100
0010
0001
0010
0100
1000
0001
0010
0100
1000
,  // measure 73
0021
0130
0200
1300
2000
3010
0020
0032
,  // measure 74
0013
0010
0100
0100
0001
0110
0001
1010
,  // measure 75
1001
0100
0100
0000
0101
0010
0010
0000
,  // measure 76
1001
0100
0100
1001
0010
0010
1001
0110
,  // measure 77
0011
1000
1000
0000
0101
1000
1000
0000
,  // measure 78
0101
0010
0010
0101
0010
0010
1100
0101
,  // measure 79
1010
0100
0100
0000
1010
0100
0100
0000
,  // measure 80
1001
0001
0001
1001
1000
1000
1001
0110
,  // measure 81
1001
0010
0100
0000
1001
0100
0010
0000
,  // measure 82
1001
0010
0100
1001
0100
0010
1001
0100
,  // measure 83
1001
0010
0010
0000
1001
1000
0001
0000
,  // measure 84
0011
0100
0100
1010
0001
0001
0110
1000
,  // measure 85
0101
0100
0200
0000
0301
0001
0002
0000
,  // measure 86
1003
2000
3010
0020
0130
0200
0301
0002
,  // measure 87
1013
0100
0100
0000
1001
0010
0100
0000
,  // measure 88
0110
0100
0020
0130
0200
1300
2000
3001
,  // measure 89
0001
0000
0001
0000
0001
0000
1001
0110
,  // measure 90
1001
0000
0010
0000
0010
0000
0110
1001
,  // measure 91
0110
0000
0110
0000
0110
0000
0011
1100
,  // measure 92
0011
0000
0011
0000
0011
0000
1001
0110
,  // measure 93
1100
0000
1100
0000
1100
0000
1100
0110
,  // measure 94
0011
0000
0011
0000
0011
0000
0011
0011
,  // measure 95
0022
0000
1133
0000
1100
0000
1010
0101
,  // measure 96
0011
0000
0011
0000
0011
0000
0011
0110
,  // measure 97
1100
0000
0101
0000
1010
0000
0110
0101
,  // measure 98
1010
0000
0110
0000
0101
0000
0011
0110
,  // measure 99
1010
0000
1100
0000
1100
0000
1010
0110
,  // measure 100
1001
0000
0110
0000
0110
0000
0101
1010
,  // measure 101
0220
0000
0330
0000
,  // measure 102
1001
0000
0000
0000
,  // measure 103
2020
3030
0202
0303
,  // measure 104
1010
0000
0101
0000
1001
0110
0101
0110
,  // measure 105
1010
0100
0001
1100
0010
0001
0010
1100
,  // measure 106
0001
0010
0001
1100
0010
0100
1000
0011
,  // measure 107
0100
0010
0100
1001
0010
0100
1000
0101
,  // measure 108
0010
0001
0100
1010
0100
0010
0001
1100
,  // measure 109
0010
0100
0001
1100
0010
0001
0100
1010
,  // measure 110
0100
0010
0100
1001
0010
0001
1000
0110
,  // measure 111
0001
1000
0010
0110
0001
0010
0001
0011
,  // measure 112
1000
0100
1000
1100
0010
0100
0010
0110
,  // measure 113
1001
0000
0110
0000
0101
0000
1010
0110
,  // measure 114
0101
0000
0011
0000
1001
0000
0110
1001
,  // measure 115
0101
0000
1100
0000
0110
0000
0101
1010
,  // measure 116
0101
0000
0101
0000
0101
0000
1010
0110
,  // measure 117
1010
1010
1010
1010
1010
1010
1010
1010
,  // measure 118
0101
0101
0101
0101
0101
0101
0101
0101
,  // measure 119
0110
0110
0110
0110
0110
0110
0110
0110
,  // measure 120
1001
1001
1001
1001
1001
1001
1001
1001
,  // measure 121
2002
3003
0220
0330
0202
0303
1010
0101
,  // measure 122
0220
0330
0202
0303
2020
3030
0011
0101
,  // measure 123
2020
3030
0220
0330
0022
0033
1100
0101
,  // measure 124
0220
0330
0202
0303
2020
3030
1100
0110
,  // measure 125
0022
0033
2200
3300
0202
0303
0210
0321
,  // measure 126
2230
3300
0202
0303
0220
0330
1010
0110
,  // measure 127
0101
0000
0110
0000
1001
0000
1001
0011
,  // measure 128
1010
0100
0010
0001
1000
0100
0010
0001
,  // measure 129
1000
0010
0100
0001
1000
0010
0100
0010
,  // measure 130
0001
0010
0100
1000
0001
0010
0100
1000
,  // measure 131
0001
0100
0010
1000
0001
0100
0010
1000
,  // measure 132
0100
0010
0100
1000
0010
0100
0001
0010
,  // measure 133
0100
1000
0010
0100
0010
0001
0010
0100
,  // measure 134
0010
0100
1000
0010
0100
0001
1000
0010
,  // measure 135
1100
0000
1010
0000
,  // measure 136
0101
1010
0101
1010
,  // measure 137
0202
0000
0000
0000
,  // measure 138
0000
0000
0000
0000
,  // measure 139
0303
0000
0000
0000
;

//---------------dance-single - ----------------
#NOTES:
     dance-single:
     :
     Medium:
     11:
     1.000,1.000,0.905,0.216,0.000,729.000,109.000,26.000,0.000,0.000:  // measure 1
1000
0000
0001
0000
0100
0000
0010
1000
,  // measure 2
0001
0000
0100
0000
1000
0000
0100
1000
,  // measure 3
0100
0000
0010
0000
0100
0000
0001
0010
,  // measure 4
0001
0000
0100
0000
0010
0000
0100
0010
,  // measure 5
0100
0000
0001
0000
1000
0000
0010
0100
,  // measure 6
0001
0000
0100
0000
1000
0000
0001
0100
,  // measure 7
0001
0000
0010
0000
0100
0000
1000
0010
,  // measure 8
1000
0000
0010
0000
0100
0000
0001
0010
,  // measure 9
0100
0000
0100
0000
0100
0000
0010
0100
,  // measure 10
1000
0000
1000
0000
1000
0000
1000
0100
,  // measure 11
0010
0000
0010
0000
0010
0000
0010
0100
,  // measure 12
0001
0000
0001
0000
0001
0000
0001
0010
,  // measure 13
0100
0000
0100
0000
0100
0000
1000
0010
,  // measure 14
0100
0000
0100
0000
0100
0000
0010
0100
,  // measure 15
1000
0000
1000
0000
1000
0000
1000
0001
,  // measure 16
0010
0000
0010
0000
0010
0100
1000
0100
,  // measure 17
0010
0000
0001
0000
1000
0010
0000
0100
,  // measure 18
0001
0000
1000
0010
0000
0001
1000
0010
,  // measure 19
0101
0000
1000
0000
0010
0100
0000
1000
,  // measure 20
0001
0000
0100
1000
0000
0001
0010
0100
,  // measure 21
1001
0000
0100
0000
1000
0010
0000
0100
,  // measure 22
0001
0000
0010
0100
0000
1000
0010
0100
,  // measure 23
0011
0000
0100
0000
1000
0001
0000
0010
,  // measure 24
0100
0000
0001
0010
0000
1000
0010
0100
,  // measure 25
0101
0000
1001
0000
0110
1001
0000
0011
,  // measure 26
0000
0000
0000
0000
1100
0000
1001
1001
,  // measure 27
0000
0000
0000
0000
1100
0000
1001
1001
,  // measure 28
0000
0110
0000
0011
0000
1001
0110
0000
,  // measure 29
1001
0000
0100
0000
1000
1000
0000
0100
,  // measure 30
0000
0000
0000
0000
0001
0000
1000
0002
,  // measure 31
0000
0000
0003
0000
1000
0000
0010
0100
,  // measure 32
0000
0100
0000
0100
0000
1000
0001
0000
,  // measure 33
1100
0001
1000
0001
1000
0001
1000
0001
,  // measure 34
0110
1000
0010
1000
0010
1000
0010
1000
,  // measure 35
0101
1000
0010
1000
0010
1000
0010
1000
,  // measure 36
0011
0100
0010
0100
0010
0100
0010
0100
,  // measure 37
1001
0010
1000
0010
1000
0010
1000
0010
,  // measure 38
1100
0001
0010
0001
0010
0001
0010
0001
,  // measure 39
1100
0001
0100
0001
0100
0001
0100
0001
,  // measure 40
1010
0100
0001
0100
0001
0100
0001
0100
,  // measure 41
1001
0000
1001
0000
1001
0000
0010
0100
,  // measure 42
1001
0000
1100
0000
1100
0000
0100
0010
,  // measure 43
0101
0000
0101
0000
0101
0000
0010
0100
,  // measure 44
1001
0000
1001
0000
1001
0000
0010
0100
,  // measure 45
0011
0000
0011
0000
0011
0000
0100
1000
,  // measure 46
0110
0000
0110
0000
0110
0000
0001
0010
,  // measure 47
1100
0000
1100
0000
1100
0000
1000
0100
,  // measure 48
0011
0000
0011
0000
0011
1000
0001
1000
,  // measure 49
0011
0000
0011
0000
1000
0010
0000
0100
,  // measure 50
0000
0100
0000
0000
1000
0000
0001
1000
,  // measure 51
0000
0000
1000
0000
0001
0000
0100
1000
,  // measure 52
0000
0010
0100
0010
0100
0001
1000
0001
,  // measure 53
1100
0000
0011
0000
0100
1000
0000
0001
,  // measure 54
0000
0001
0000
0000
0100
0000
1100
1001
,  // measure 55
0000
0000
1100
0000
0001
0000
0110
1001
,  // measure 56
0000
0100
0000
1000
0000
0001
0010
0000
,  // measure 57
1000
0000
1000
0100
0100
1000
0010
0010
,  // measure 58
1000
0001
0001
1000
0010
0010
1000
0000
,  // measure 59
1100
0000
0001
1000
1000
0001
0100
0100
,  // measure 60
0001
0010
0010
0001
0100
0100
0001
0000
,  // measure 61
0011
0000
1000
0010
0010
0100
0001
0001
,  // measure 62
0010
1000
1000
0010
0100
0100
0001
0100
,  // measure 63
1010
0000
1000
0010
0010
1000
0100
0100
,  // measure 64
1000
0001
0001
0100
0010
0010
0100
0010
,  // measure 65
1001
0000
1000
0010
0010
1000
0100
0100
,  // measure 66
1000
0001
0001
1000
0010
0010
0100
0000
,  // measure 67
0011
0000
0001
1000
1000
0001
1000
1000
,  // measure 68
0001
0010
0010
0001
0010
0010
0001
0000
,  // measure 69
0110
0000
1000
0001
0001
1000
0001
0001
,  // measure 70
1000
0010
0010
1000
0010
0010
0100
1000
,  // measure 71
0011
1000
0100
1000
0011
1000
0100
1000
,  // measure 72
0101
1000
0011
1000
0101
1000
0011
1000
,  // measure 73
0101
0010
0100
1000
0001
0010
0100
1000
,  // measure 74
0010
0100
0001
1000
0010
0100
0001
1000
,  // measure 75
0011
0100
0010
0001
0100
1000
0010
0100
,  // measure 76
0001
1000
0010
0100
0010
0001
0010
0100
,  // measure 77
1010
0100
1000
0100
0010
0001
0100
0010
,  // measure 78
0001
0100
0010
1000
0100
0010
0100
0010
,  // measure 79
1001
0010
0100
0010
0001
0010
0100
1000
,  // measure 80
0001
0010
0100
1000
0100
0010
0001
1000
,  // measure 81
0101
0010
0100
1000
0010
0100
0001
1000
,  // measure 82
0100
0001
0010
1000
0100
0001
0100
1000
,  // measure 83
0110
0001
0010
1000
0010
0001
0010
0100
,  // measure 84
1000
0001
0100
0010
1000
0001
0100
0010
,  // measure 85
1100
0010
0100
1000
0100
0010
0001
0100
,  // measure 86
0010
1000
0100
1000
0001
0010
0100
0010
,  // measure 87
1001
0010
0001
0010
1000
0100
1000
0010
,  // measure 88
0100
0010
1000
0001
0100
0010
0100
0001
,  // measure 89
1100
0000
1000
0000
1000
0000
1000
0100
,  // measure 90
0010
0000
0010
0000
0010
0000
0010
0001
,  // measure 91
0100
0000
0100
0000
0100
0000
0100
0010
,  // measure 92
0001
0000
0001
0000
0001
0000
0001
0010
,  // measure 93
0100
0000
0100
0000
0100
0000
0100
1000
,  // measure 94
0100
0000
0100
0000
0100
0000
1000
0100
,  // measure 95
0011
0000
0001
0000
0001
0000
0001
0100
,  // measure 96
1000
0000
1000
0000
1000
0000
1000
0100
,  // measure 97
0011
0000
0010
0000
0010
0000
0100
0010
,  // measure 98
1001
0000
0010
0000
0010
0000
0010
0100
,  // measure 99
0011
0000
0010
0000
1000
0000
0010
0100
,  // measure 100
1000
0000
0010
0000
0100
0000
0001
0010
,  // measure 101
1001
0000
0010
0000
0100
0000
0001
0010
,  // measure 102
0100
0000
0010
0000
1000
0000
0010
0100
,  // measure 103
0022
0033
2002
3003
,  // measure 104
0220
0330
0202
0303
2020
3030
0202
0303
,  // measure 105
1000
0000
0010
0000
0001
0010
0000
1000
,  // measure 106
0000
1000
0000
0000
0001
0000
1000
0010
,  // measure 107
0000
0000
0010
0000
1000
0000
0100
1000
,  // measure 108
0000
0001
0000
0100
0000
1000
0001
0000
,  // measure 109
1100
0110
0110
0001
,  // measure 110
0010
0001
1000
0010
,  // measure 111
1000
0010
1000
0001
,  // measure 112
0100
0001
1000
0010
,  // measure 113
0100
1100
0010
0101
,  // measure 114
0010
0011
1000
1100
,  // measure 115
1000
0110
0001
1010
,  // measure 116
0100
0011
0100
0110
,  // measure 117
1000
0000
0010
0000
0100
0010
0000
0001
,  // measure 118
0000
0001
0000
0000
0010
0000
0100
1000
,  // measure 119
0000
0001
0000
0000
0100
0000
1000
0010
,  // measure 120
0000
0010
0000
0010
0000
0001
0010
0000
,  // measure 121
2001
0000
0000
0000
,  // measure 122
3002
0000
0000
0000
,  // measure 123
0023
0000
0000
0000
,  // measure 124
2030
0000
0000
0000
,  // measure 125
3020
0000
0000
0000
,  // measure 126
0230
0000
0000
0000
,  // measure 127
0302
0000
0000
0000
,  // measure 128
2003
0000
0000
0000
,  // measure 129
3002
0000
1000
0000
1000
0000
1000
1000
,  // measure 130
2003
0000
0001
0000
0001
0000
0001
0001
,  // measure 131
3002
0000
1000
0000
1000
0000
1000
1000
,  // measure 132
1003
0000
0010
0000
0100
0000
0001
0010
,  // measure 133
0100
1000
0010
0100
,  // measure 134
0001
0001
0001
0001
,  // measure 135
0100
0100
0100
0100
,  // measure 136
1100
0110
0101
1010
,  // measure 137
0202
0000
0000
0000
,  // measure 138
0000
0000
0000
0000
,  // measure 139
0303
0000
0000
0000
;
